吾爱音乐论坛

 找回密码
 立即注册

QQ登录

只需一步,快速开始

扫一扫,访问微社区

查看: 88|回复: 4

[专辑] 拿索斯《拿索斯十五周年纪念CD》WAV+CUE

[复制链接]

98

主题

163

帖子

39

积分
吾爱币
639
贡献
33
违规

版主

发表于 2019-4-11 09:43:03 | 显示全部楼层 |阅读模式
本帖最后由 海纳百川 于 2019-4-11 09:50 编辑

V. A. -《拿索斯十五周年纪念CD》(NAXOS 15th Anniversary CD)[NAXOS 2002][FLAC]
唱片厂牌:NAXOS
录音制式:DDD Stereo
唱片编号:8.555964
资源出处:(FLAC, cue, log, catalog & booklet)
专辑介绍:

“拿索斯”(NAXOS)厂牌是由“西曼国际唱片”属下之分公司“拿索斯国际(远东)唱片公司”负责在中国及远东地区发行。“西曼国际唱片”( HNH)是世界上最庞大之古典唱片集团之一,其旗下之拿索斯系列更是目前全球最畅销的三大古典名牌之一,其优质之录音及演绎备受国际权威乐评人及音响界鼎力推崇,于欧、美及泛太平洋多个地区市场占有率逾百分之五十(欧洲多国更逾百分之七十以上)。加上配合超特惠价格销售,十年间征服全球古典唱片业,成为西方唱片界的一个神话。于九七年一月中的法国康城唱片节,拿索斯更被各国权威音乐杂志联合推选为‘九六年全年最佳古典厂牌’。

拿索斯不独在销售上赢得偌大的成功,同时亦赢得了权威乐评界的拥戴,各国权威音乐杂志如《留声机》(英)、《CD评论》(英)、《美国 CD 指南》、《号曲》(美)、及著名的《企鹅CD评鉴》等,经常给予高度推荐,就以《企鹅CD评鉴》为例,近200款的拿索斯录音,被评为<三星级>及<三星带花>的最高荣誉。故难怪拿索斯能于九七年初的康城唱片节上,击败一些百年厂牌,赢得最崇高的<全年最佳古典厂牌>大奖。

现时,拿索斯聘用的演奏家及乐团,遍布世界各地。独奏家们大部分都是获奖无数的青年才俊;而乐团方面,除了早期的东欧乐团以外,越来越多西欧、美国及澳纽各国乐团加盟,如皇家交响乐团、BBC交响乐团、莫斯科交响乐团、圣彼得堡交响乐团、美国圣地亚哥交响乐团、爱尔兰国家交响乐团、维也纳室内交响乐队及萨尔斯堡室内乐队等。优秀的演绎,配合其一流的录音效果、高级的制作水平和低廉的价格,使拿索斯于十年间畅销于50多个国家,风行全球。

当初Klaus Heymann在创立拿索斯的时候,恐怕也未曾料想到它会在很短的时间内成为全球古典音乐唱片的一个重要厂牌。当时CD唱片忝为业界新贵,售价很高,Klaus Heymann最初的计划只是想针对这个现象去做一些新尝试,以别人售价的约三分之一的价格出版一些基本曲目的古典音乐CD,让广大的音乐爱好者们能得到实惠。当然这样的想法在那时是有些疯狂而且还很不合时宜,因为CD出版了以后销路反倒出了问题。那些专门经营CD销售的公司和商店都认为卖NAXOS的东西利润太低没有多少赚头,所以大多不肯接纳NAXOS,即便是赏脸留了几张NAXOS的CD在店里摆的,也不会向消费者推荐这个新的厂牌,因此NAXOS最初的销售场所往往是连锁店和超市等这样的一些地方。大家都在等着,要看NAXOS出洋相,CD店是这样,媒体是这样,老牌的唱片公司更是这样,因为他们都觉得NAXOS只不过像是一阵风,很快就会变成浮云的。后来还是多亏了《留声机》杂志公正地评价了NAXOS的一些录音,再加上之后的《企鹅CD评鉴》的评介,才逐渐让人们摒弃了一些固有而偏执的成见,开始真正关注起NAXOS这个厂牌。

拿索斯最初的计划是出版500款左右的录音,这样也就基本上囊括了主要的古典曲目了。但随着人们对这个厂牌的了解和喜爱程度与日俱增,这个数目也被几度追加,到2002年止,拿索斯已出版了2300多款录音。而它的宗旨是尽量避免重复录制同一曲目,故曲目广泛,从西洋古乐至现代作品,应有尽有,俨然成为世界上最全备的古典音乐CD的百科全书之一。

REM GENRE Classical
REM DATE 2002
REM DISCID DA126D10
REM COMMENT "ExactAudioCopy v1.0b3"
PERFORMER "Various Artists"
TITLE "NAXOS 15TH ANNIVERSARY CD (NAXOS 2002)"
FILE "Various Artists - NAXOS 15TH ANNIVERSARY CD (NAXOS 2002).flac" WAVE
  TRACK 01 AUDIO
           
    TITLE "Rossini: The Barber of Seville - Overture"
    PERFORMER "Failoni CO & Will Humburg"
    INDEX 01 00:00:00
  TRACK 02 AUDIO
    TITLE "Saint-Saens: Carnival of the Animals - xiii.The Swan"
    PERFORMER "Maria Kliegel &  Bournemouth Sinfonietta "
    INDEX 01 06:39:08
  TRACK 03 AUDIO
    TITLE "Saint-Georges: Violin Concerto in G major - Rondeau"
    PERFORMER "Takako Nishizaki & Cologne CO"
    INDEX 01 10:03:56
  TRACK 04 AUDIO
    TITLE "Chopin: Prelude No.15 in D flat major, Op.28, 'Raindrop'"
    PERFORMER "Idil Biret"
    INDEX 01 13:57:61
  TRACK 05 AUDIO
    TITLE "Schubert: Winterreise, Op.89, D.911 - No.5. Der Lindenbaum"
    PERFORMER "Roman Trekel & Ulrich Eisenlohr "
    INDEX 01 19:45:35
  TRACK 06 AUDIO
    TITLE "Tavener: Song for Athene"
    PERFORMER "Choir of St. John's College, Cambridge"
    INDEX 01 24:26:15
  TRACK 07 AUDIO
    TITLE "Shostakovich: Prelude and Fugue No.4 in E minor, Op.87"
    PERFORMER "Konstantin Scherbakov"
    INDEX 01 30:02:70
  TRACK 08 AUDIO
    TITLE "Obrecht: Stat in meskin"
    PERFORMER "Ensemble Villanella"
    INDEX 00 37:28:39
    INDEX 01 37:28:57
  TRACK 09 AUDIO
    TITLE "Haydn: String Quartet in D major, Op.64 No.5, 'Lark' - Finale: Vivace"
    PERFORMER "Kodaly Quartet"
    INDEX 00 39:34:02
    INDEX 01 39:34:31
  TRACK 10 AUDIO
    TITLE "Liszt: 19 Hungarian Rhapsodies, S244/R106 - No.3 in B flat major"
    PERFORMER "Jeno Jando"
    INDEX 01 41:46:58
  TRACK 11 AUDIO
    TITLE "Bruckner: Symphony No.2 in C minor - ii. Scherzo: Schnell"
    PERFORMER "NSO of Ireland & Georg Tintner"
    INDEX 00 46:10:13
    INDEX 01 46:10:48
  TRACK 12 AUDIO
    TITLE "Telemann: Overture in D major, 'Darmstadt' - Harlequinade"
    PERFORMER "Cologne CO & Helmut Muller-Bruhl"
    INDEX 01 57:03:54
  TRACK 13 AUDIO
    TITLE "Barber: Adagio for Strings, Op.11"
    PERFORMER "Royal Scottish NO & Marin Alsop"
    INDEX 01 59:01:34
  TRACK 14 AUDIO
    TITLE "Vaughan Williams: Phantasy Quintet - Alla Sarabanda / Lento"
    PERFORMER "Maggini Quartet & Garfield Jackso"
    INDEX 01 66:43:47
  TRACK 15 AUDIO
    TITLE "Messiaen: Turangalila-symphonie - v. Joie du sang des etoiles"
    PERFORMER "Polish National RSO & Antoni Wit"
    INDEX 00 69:33:53
    INDEX 01 69:35:09   
游客如果您要查看本帖隐藏内容请回复          如 无法回复 请积分充值 吾爱币     免回复、免金币请赞助VIP.

本帖子中包含更多资源

您需要 登录 才可以下载或查看,没有帐号?立即注册

x




上一篇:刘家昌《深情1-华语歌星金曲经典辑》[原抓WAV+CUE]
下一篇:彭羚《靓声经典(HQCD)》华纳唱片限量销售1000张[WAV+CUE]
回复

使用道具 举报

0

主题

90

帖子

18

积分
吾爱币
14
贡献
0
违规

新手上路

发表于 2019-4-11 11:21:46 | 显示全部楼层
不知道的唱片公司,听一听,谢谢。
回复

使用道具 举报

0

主题

48

帖子

10

积分
吾爱币
1
贡献
2
违规

新手上路

发表于 2019-4-12 07:50:14 | 显示全部楼层
支持拿索斯,廉价但品质不错!
回复

使用道具 举报

3

主题

118

帖子

24

积分
吾爱币
167
贡献
0
违规

新手上路

发表于 2019-4-12 08:14:01 | 显示全部楼层
支持拿索斯,品质不错!  
回复

使用道具 举报

1

主题

127

帖子

25

积分
吾爱币
28
贡献
0
违规

新手上路

发表于 2019-5-6 19:33:48 | 显示全部楼层
试听曲很好听,谢谢!
回复

使用道具 举报

您需要登录后才可以回帖 登录 | 立即注册

本版积分规则

QQ|Archiver|手机版|小黑屋|音乐论坛QQ群:84998964|吾爱音乐论坛 ( 粤ICP备18023705号 )|网站地图

GMT+8, 2019-6-17 20:33 , Processed in 0.263143 second(s), 33 queries .

Powered by Discuz! X3.4

© 2001-2017 Comsenz Inc.

快速回复 返回顶部 返回列表