吾爱CD音乐网

 找回密码
 立即注册

QQ登录

只需一步,快速开始

快捷登录

手机号码,快捷登录

搜索

在线
客服

在线客服服务时间: 9:00-24:00

选择下列客服马上在线沟通:

快速
发帖

客服
热线


7*24小时客服服务热线

关注
微信

关注微信二维码
顶部
查看: 185|回复: 6
收起左侧

[怀旧经典] 港台原唱 2019

[复制链接]

16

主题

116

帖子

9

积分
吾爱币
176
贡献
10
违规
0

版主

发表于 2020-11-26 22:55:43 | 显示全部楼层 |阅读模式


港台原唱       2019

1*張艾嘉-也许 (口白)-04:03
2*楊林-我是谁-03:26
3*爱慧娜-喔!对不起-02:54
4*百合二重唱-當流星劃過-03:46
5*鲍正芳-请你对我说-03:05
6*比莉(王雪娥)-你让我热-04:07
7*蔡琴-现在不想见你-05:09
8*草蜢-深渊感觉-00:52
9*陈慧娴-癡情意外-03:48
10*陈忆文-飘香的咖啡屋-04:17
11*韩宝仪-留不住斜阳-03:49
12*林淑容-我的心里没有他-03:11
13*葉愛菱-給你的-03:58
14*汪明荃-冻咖啡-03:35
15*王芷蕾-冷冷的夏-04:36
16*吴巧玲-想你想你-03:33
17*樱花-我没有人爱-02:51
18*张俐敏-再看我一眼-02:32
19*費玉清-一场游戏-03:41
20*鳳飛飛-夏的季節-03:19
21*龍飄飄-知心人-02:51

[hide链接:
文件名:外部下载.zip( 售价: 3吾爱币 )
请打开外部链接进行下载
提取码: zsna][/hide]

本帖子中包含更多资源

您需要 登录 才可以下载或查看,没有帐号?立即注册

x




上一篇:202011流行抖音FLAC
下一篇:海来阿木《别知己》 flac无损音乐免费下载

16

主题

116

帖子

9

积分
吾爱币
176
贡献
10
违规
0

版主

 楼主| 发表于 2020-11-29 16:51:35 | 显示全部楼层
Exact Audio Copy V1.3 from 2. September 2016

EAC 抓取日志文件从28. 十二月 2017, 20:28

未知艺术家 / 未知标题

使用驱动器  :PIONEER DVD-RW  DVR-112   Adapter: 1  ID: 0

读取模式      : 可靠Secure
使用精确流     : 是
清空音频缓存    : 是
使用 C2 指示器 : 否

组合读写偏移校正:             : 0
读取 Lead-In 和 Lead-Out : 否
用静音填充抓取中丢失偏移的采样       : 是
去除首尾静音块               : 否
在CRC 计算中使用了空样本       : 是
已用接口                  : Win NT 及 2000 本地 Win32 接口

所用输出模式: : 内部 WAV 函数
样本格式    : 44.100 Hz; 16 Bit; 立体声


已抓取 CD 的 TOC

     音轨 |    起始    |    长度    |  起始扇区  |  结束扇区  
    --------------------------------------------
      1 |  0:00.00 |  4:03.59 |      0 |  18283
      2 |  4:03.59 |  3:26.05 |  18284 |  33738
      3 |  7:29.64 |  2:54.02 |  33739 |  46790
      4 | 10:23.66 |  3:46.18 |  46791 |  63758
      5 | 14:10.09 |  3:05.71 |  63759 |  77704
      6 | 17:16.05 |  4:07.50 |  77705 |  96279
      7 | 21:23.55 |  5:09.62 |  96280 | 119516
      8 | 26:33.42 |  0:52.00 | 119517 | 123416
      9 | 27:25.42 |  3:48.35 | 123417 | 140551
     10 | 31:14.02 |  4:17.68 | 140552 | 159894
     11 | 35:31.70 |  3:49.72 | 159895 | 177141
     12 | 39:21.67 |  3:11.60 | 177142 | 191526
     13 | 42:33.52 |  3:58.57 | 191527 | 209433
     14 | 46:32.34 |  3:35.00 | 209434 | 225558
     15 | 50:07.34 |  4:36.14 | 225559 | 246272
     16 | 54:43.48 |  3:33.18 | 246273 | 262265
     17 | 58:16.66 |  2:51.13 | 262266 | 275103
     18 | 61:08.04 |  2:32.62 | 275104 | 286565
     19 | 63:40.66 |  3:41.50 | 286566 | 303190
     20 | 67:22.41 |  3:19.28 | 303191 | 318143
     21 | 70:41.69 |  2:49.57 | 318144 | 330875


范围状态及错误

已选择范围

     文件名 C:\Documents and Settings\Administrator\桌面\未知艺术家 - 未知标题.wav

     峰值电平 100.0 %
     抓取速度 7.6 X
     范围质量 100.0 %
     复制 CRC B446C700
     复制成功

没有错误发生

状态报告结尾

1

主题

206

帖子

11

积分
吾爱币
157
贡献
102
违规
0

新手上路

发表于 2021-1-18 10:28:58 | 显示全部楼层
https://pan.baidu.com/s/1pPogZaYSRy9hKJRc0WVK4A---下载不了哎!!

1

主题

206

帖子

11

积分
吾爱币
157
贡献
102
违规
0

新手上路

发表于 2021-1-18 10:30:36 | 显示全部楼层

抱歉没有找到与“https://pan.baidu.com/s/1vz7WG5G6YnfHx5hxFwFnhg”相关的网页。

1

主题

206

帖子

11

积分
吾爱币
157
贡献
102
违规
0

新手上路

发表于 2021-1-18 10:32:02 | 显示全部楼层
能详述一下下载的方法吗?????x谢谢了

16

主题

116

帖子

9

积分
吾爱币
176
贡献
10
违规
0

版主

 楼主| 发表于 2021-1-18 19:09:11 | 显示全部楼层
wanggenlin 发表于 2021-1-18 10:30
抱歉没有找到与“https://pan.baidu.com/s/1vz7WG5G6YnfHx5hxFwFnhg”相关的网页。

你再仔细看看,地址,检查没问题

1

主题

206

帖子

11

积分
吾爱币
157
贡献
102
违规
0

新手上路

发表于 2021-1-21 12:32:24 | 显示全部楼层
好的!!谢谢!!!!
懒得打字嘛,点击右侧快捷回复 用心回复,共创和谐网络
您需要登录后才可以回帖 登录 | 立即注册

本版积分规则